查看: 207|回復: 2
打印 上一主題 下一主題

[動作片] 孤膽追蹤者/追蹤者 The.Tracker.2019.1080p.BluRay.x264-SADPANDA 6.56GB

[復制鏈接]

 成長值: 3560

級別:資源管理組

注冊時間
2017-10-20
最后登錄
2019-12-25
聽眾
1
收聽
0
主題
88967
藍光幣
74200 枚
貢獻
13329 點
跳轉到指定樓層
樓主
發表于 2019-9-19 21:50:31 | 只看該作者 |只看大圖 回帖獎勵 |倒序瀏覽 |閱讀模式


譯  名 孤膽追蹤者 / 追蹤者
片  名 The Tracker
年  代 2019
產  地 意大利 / 美國
類  別 動作 / 驚悚
語  言 英語
上映日期 2019-09-02(美國)
IMDb評分  3.7/10 from 143 users
IMDb鏈接  http://www.imdb.com/title/tt4142394
豆瓣評分 0/10 from 0 users
豆瓣鏈接 https://movie.douban.com/subject/30167501/
導  演 喬治·塞拉菲尼 Giorgio Serafini
編  劇 Rab Berry / Scott Mallace / 喬治·塞拉菲尼 Giorgio Serafini
主  演 杜夫·龍格爾 Dolph Lundgren
       瑪塔·加絲蒂妮 Marta Gastini
       科西莫·福斯科 Cosimo Fusco


簡  介  

  A mysterious stranger travels to a remote village where, 15 years earlier, his wife and daughter were kidnapped.
  1. Video
  2. ID                                       : 1
  3. Format                                   : AVC
  4. Format/Info                              : Advanced Video Codec
  5. Format profile                           : [email protected]
  6. Format settings                          : CABAC / 5 Ref Frames
  7. Format settings, CABAC                   : Yes
  8. Format settings, Reference frames        : 5 frames
  9. Codec ID                                 : V_MPEG4/ISO/AVC
  10. Duration                                 : 1 h 27 min
  11. Bit rate                                 : 9 239 kb/s
  12. Width                                    : 1 920 pixels
  13. Height                                   : 808 pixels
  14. Display aspect ratio                     : 2.40:1
  15. Frame rate mode                          : Constant
  16. Frame rate                               : 23.976 (24000/1001) FPS
  17. Color space                              : YUV
  18. Chroma subsampling                       : 4:2:0
  19. Bit depth                                : 8 bits
  20. Scan type                                : Progressive
  21. Bits/(Pixel*Frame)                       : 0.248
  22. Stream size                              : 5.63 GiB (86%)
  23. Writing library                          : x264 core 157 r2969 d4099dd
  24. Encoding settings                        : cabac=1 / ref=5 / deblock=1:-3:-3 / analyse=0x3:0x113 / me=umh / subme=8 / psy=1 / psy_rd=1.00:0.25 / mixed_ref=1 / me_range=24 / chroma_me=1 / trellis=1 / 8x8dct=1 / cqm=0 / deadzone=21,11 / fast_pskip=1 / chroma_qp_offset=-4 / threads=25 / lookahead_threads=4 / sliced_threads=0 / nr=0 / decimate=1 / interlaced=0 / bluray_compat=0 / constrained_intra=0 / bframes=3 / b_pyramid=2 / b_adapt=1 / b_bias=0 / direct=3 / weightb=1 / open_gop=0 / weightp=2 / keyint=240 / keyint_min=24 / scenecut=40 / intra_refresh=0 / rc_lookahead=50 / rc=2pass / mbtree=1 / bitrate=9239 / ratetol=1.0 / qcomp=0.60 / qpmin=0 / qpmax=69 / qpstep=4 / cplxblur=20.0 / qblur=0.5 / ip_ratio=1.40 / aq=1:0.75
  25. Default                                  : Yes
  26. Forced                                   : No

  27. Audio
  28. ID                                       : 2
  29. Format                                   : DTS
  30. Format/Info                              : Digital Theater Systems
  31. Codec ID                                 : A_DTS
  32. Duration                                 : 1 h 27 min
  33. Bit rate mode                            : Constant
  34. Bit rate                                 : 1 509 kb/s
  35. Channel(s)                               : 6 channels
  36. Channel layout                           : C L R Ls Rs LFE
  37. Sampling rate                            : 48.0 kHz
  38. Frame rate                               : 93.750 FPS (512 SPF)
  39. Bit depth                                : 24 bits
  40. Compression mode                         : Lossy
  41. Stream size                              : 942 MiB (14%)
  42. Language                                 : English
  43. Default                                  : Yes
  44. Forced                                   : No

  45. Text
  46. ID                                       : 3
  47. Format                                   : UTF-8
  48. Codec ID                                 : S_TEXT/UTF8
  49. Codec ID/Info                            : UTF-8 Plain Text
  50. Duration                                 : 1 h 12 min
  51. Bit rate                                 : 6 b/s
  52. Count of elements                        : 116
  53. Stream size                              : 3.26 KiB (0%)
  54. Title                                    : Forced
  55. Language                                 : English
  56. Default                                  : Yes
  57. Forced                                   : No

  58. Menu
  59. 00:00:00.000                             : en:Chapter 01
  60. 00:04:08.248                             : en:Chapter 02
  61. 00:11:47.123                             : en:Chapter 03
  62. 00:16:24.275                             : en:Chapter 04
  63. 00:21:26.494                             : en:Chapter 05
  64. 00:27:14.591                             : en:Chapter 06
  65. 00:32:16.977                             : en:Chapter 07
  66. 00:39:29.242                             : en:Chapter 08
  67. 00:44:31.669                             : en:Chapter 09
  68. 00:49:57.286                             : en:Chapter 10
  69. 00:54:45.073                             : en:Chapter 11
  70. 01:00:15.153                             : en:Chapter 12
  71. 01:05:16.788                             : en:Chapter 13
  72. 01:10:47.285                             : en:Chapter 14
  73. 01:16:14.695                             : en:Chapter 15
  74. 01:20:10.806                             : en:Chapter 16
復制代碼









分享到:  QQ好友和群QQ好友和群
收藏收藏
VIP會員免費任意下載本站所有資源!---點擊開通
回復

使用道具 舉報

級別:榮升主角 Lv.5

注冊時間
2018-2-26
最后登錄
2019-12-24
聽眾
16
收聽
0
主題
0
藍光幣
264 枚
貢獻
0 點
沙發
發表于 2019-9-20 09:39:48 | 只看該作者

這個帖子不回對不起自己!我想我是一天也不能離開中國高清電影網
VIP會員免費任意下載本站所有資源!---點擊開通
回復

使用道具 舉報

級別:群眾演員 Lv.3

注冊時間
2019-5-18
最后登錄
2019-12-5
聽眾
8
收聽
0
主題
0
藍光幣
4 枚
貢獻
0 點
板凳
發表于 2019-11-13 15:15:07 | 只看該作者

樓主太厲害了!樓主,電影應該很好看我覺得中國高清電影網真是個好地方!
VIP會員免費任意下載本站所有資源!---點擊開通
回復

使用道具 舉報

懶得打字嘛,點擊右側快捷回復 【右側內容,后臺自定義】
您需要登錄后才可以回帖 登錄 | 立即注冊

本版積分規則

QQ|Archiver|手機版|小黑屋| 中國高清網 |網站地圖

GMT+8, 2019-12-25 11:58 , Processed in 0.117580 second(s), 36 queries .

Powered by HDchina X3.4

Copyright 2017-2019©HDchina.All right reserved

返回頂部 聯系我們
l辽宁快乐12开奖结果