查看: 250|回復: 1
打印 上一主題 下一主題

[10bit.HDR] 國際空間街/太空街 IMAX.Space.Station.2002.DOCU.2160p.UHD.BluRay.X265.10bit.HDR.DTS-X.5.1-JustWatch 7.57GB

[復制鏈接]

 成長值: 3560

級別:資源管理組

注冊時間
2017-10-20
最后登錄
2019-12-25
聽眾
1
收聽
0
主題
88967
藍光幣
74183 枚
貢獻
13329 點
跳轉到指定樓層
樓主
發表于 2019-11-5 17:54:10 | 只看該作者 |只看大圖 回帖獎勵 |倒序瀏覽 |閱讀模式


譯  名 國際空間街 / 太空街
片  名 Space Station 3D
年  代 2002
產  地 加拿大 / 美國
類  別 紀錄片
語  言 英語
上映日期 2002-04-17
IMDb評分  7.5/10 from 1457 users
IMDb鏈接  http://www.imdb.com/title/tt0290296
豆瓣評分 8.3/10 from 908 users
豆瓣鏈接 https://movie.douban.com/subject/1419880/
片  長 47 分鐘
導  演 Toni Myers
編  劇 Toni Myers
主  演 Tom Cruise


標  簽 紀錄片 | IMAX | 美國 | 科普 | 太空 | 3D | 2002 | IMAX3D

簡  介  

  《國際空間街》是由美國IMAX公司拍攝3D紀錄片,它再現各國宇航員在圍太空航行的宇宙空間街上的日常生活。影片展示的完全不同與地球上的生活狀態,令觀眾聞所未聞,充滿著有趣的細節。影片由IMAX巨幅銀幕還原的影像,逼真的視覺效果可以令觀眾忘記現實,仿佛也身處美妙的失重世界之中。

  1. Video
  2. ID                                       : 1
  3. Format                                   : HEVC
  4. Format/Info                              : High Efficiency Video Coding
  5. Format profile                           : Main [email protected]@High
  6. HDR format                               : SMPTE ST 2086, HDR10 compatible
  7. Codec ID                                 : V_MPEGH/ISO/HEVC
  8. Duration                                 : 47 min 15 s
  9. Bit rate                                 : 16.0 Mb/s
  10. Width                                    : 3 840 pixels
  11. Height                                   : 2 160 pixels
  12. Display aspect ratio                     : 16:9
  13. Frame rate mode                          : Constant
  14. Frame rate                               : 23.976 (24000/1001) FPS
  15. Color space                              : YUV
  16. Chroma subsampling                       : 4:2:0 (Type 2)
  17. Bit depth                                : 10 bits
  18. Bits/(Pixel*Frame)                       : 0.080
  19. Stream size                              : 5.28 GiB (70%)
  20. Writing library                          : x265 3.14f6dde51a5db:[Windows][GCC 6.3.0][64 bit] 10bit
  21. Encoding settings                        : cpuid=1049583 / frame-threads=6 / numa-pools=32 / wpp / no-pmode / no-pme / no-psnr / no-ssim / log-level=2 / input-csp=1 / input-res=3840x2160 / interlace=0 / total-frames=67975 / level-idc=51 / high-tier=1 / uhd-bd=0 / ref=4 / no-allow-non-conformance / repeat-headers / annexb / aud / hrd / info / hash=0 / no-temporal-layers / no-open-gop / min-keyint=24 / keyint=240 / gop-lookahead=0 / bframes=4 / b-adapt=2 / b-pyramid / bframe-bias=0 / rc-lookahead=25 / lookahead-slices=4 / scenecut=40 / radl=0 / no-splice / no-intra-refresh / ctu=64 / min-cu-size=8 / rect / no-amp / max-tu-size=32 / tu-inter-depth=1 / tu-intra-depth=1 / limit-tu=0 / rdoq-level=2 / dynamic-rd=0.00 / no-ssim-rd / signhide / no-tskip / nr-intra=0 / nr-inter=0 / no-constrained-intra / no-strong-intra-smoothing / max-merge=3 / limit-refs=3 / limit-modes / me=3 / subme=3 / merange=57 / temporal-mvp / weightp / no-weightb / no-analyze-src-pics / deblock=-3:-3 / no-sao / no-sao-non-deblock / rd=4 / no-early-skip / rskip / no-fast-intra / no-tskip-fast / no-cu-lossless / no-b-intra / no-splitrd-skip / rdpenalty=0 / psy-rd=2.00 / psy-rdoq=1.00 / no-rd-refine / no-lossless / cbqpoffs=0 / crqpoffs=0 / rc=crf / crf=17.0 / qcomp=0.60 / qpstep=4 / stats-write=0 / stats-read=0 / vbv-maxrate=160000 / vbv-bufsize=160000 / vbv-init=0.9 / crf-max=0.0 / crf-min=0.0 / ipratio=1.40 / pbratio=1.30 / aq-mode=2 / aq-strength=1.00 / cutree / zone-count=0 / no-strict-cbr / qg-size=32 / no-rc-grain / qpmax=69 / qpmin=0 / no-const-vbv / sar=1 / overscan=0 / videoformat=5 / range=0 / colorprim=9 / transfer=16 / colormatrix=9 / chromaloc=1 / chromaloc-top=2 / chromaloc-bottom=2 / display-window=0 / master-display=G(13250,34500)B(7500,3000)R(34000,16000)WP(15635,16450)L(10000000,50)cll=1000,300 / min-luma=0 / max-luma=1023 / log2-max-poc-lsb=8 / vui-timing-info / vui-hrd-info / slices=1 / no-opt-qp-pps / no-opt-ref-list-length-pps / no-multi-pass-opt-rps / scenecut-bias=0.05 / no-opt-cu-delta-qp / no-aq-motion / hdr / hdr-opt / no-dhdr10-opt / no-idr-recovery-sei / analysis-reuse-level=5 / scale-factor=0 / refine-intra=0 / refine-inter=0 / refine-mv=0 / refine-ctu-distortion=0 / no-limit-sao / ctu-info=0 / no-lowpass-dct / refine-analysis-type=0 / copy-pic=1 / max-ausize-factor=1.0 / no-dynamic-refine / no-single-sei / no-hevc-aq / no-svt / no-field / qp-adaptation-range=1.00
  22. Default                                  : Yes
  23. Forced                                   : No
  24. Color range                              : Limited
  25. Color primaries                          : BT.2020
  26. Transfer characteristics                 : PQ
  27. Matrix coefficients                      : BT.2020 non-constant
  28. Mastering display color primaries        : Display P3
  29. Mastering display luminance              : min: 0.0050 cd/m2, max: 1000 cd/m2
  30. Maximum Content Light Level              : 1000 cd/m2
  31. Maximum Frame-Average Light Level        : 300 cd/m2

  32. Audio #1
  33. ID                                       : 2
  34. Format                                   : DTS XLL
  35. Format/Info                              : Digital Theater Systems
  36. Commercial name                          : DTS-HD Master Audio
  37. Codec ID                                 : A_DTS
  38. Duration                                 : 47 min 10 s
  39. Bit rate mode                            : Variable
  40. Bit rate                                 : 4 725 kb/s
  41. Channel(s)                               : 6 channels
  42. Channel layout                           : C L R Ls Rs LFE
  43. Sampling rate                            : 48.0 kHz
  44. Frame rate                               : 93.750 FPS (512 SPF)
  45. Bit depth                                : 24 bits
  46. Compression mode                         : Lossless
  47. Stream size                              : 1.56 GiB (21%)
  48. Title                                    : Surround 5.1
  49. Language                                 : English
  50. Default                                  : Yes
  51. Forced                                   : No

  52. Audio #2
  53. ID                                       : 3
  54. Format                                   : DTS XLL
  55. Format/Info                              : Digital Theater Systems
  56. Commercial name                          : DTS-HD Master Audio
  57. Codec ID                                 : A_DTS
  58. Duration                                 : 47 min 10 s
  59. Bit rate mode                            : Variable
  60. Bit rate                                 : 1 993 kb/s
  61. Channel(s)                               : 2 channels
  62. Channel layout                           : L R
  63. Sampling rate                            : 48.0 kHz
  64. Frame rate                               : 93.750 FPS (512 SPF)
  65. Bit depth                                : 24 bits
  66. Compression mode                         : Lossless
  67. Stream size                              : 673 MiB (9%)
  68. Title                                    : Stereo
  69. Language                                 : English
  70. Default                                  : No
  71. Forced                                   : No

  72. Text #1
  73. ID                                       : 4
  74. Format                                   : PGS
  75. Muxing mode                              : zlib
  76. Codec ID                                 : S_HDMV/PGS
  77. Codec ID/Info                            : Picture based subtitle format used on BDs/HD-DVDs
  78. Duration                                 : 45 min 24 s
  79. Bit rate                                 : 64.2 kb/s
  80. Count of elements                        : 1546
  81. Stream size                              : 20.9 MiB (0%)
  82. Language                                 : English
  83. Default                                  : No
  84. Forced                                   : No

  85. Text #2
  86. ID                                       : 5
  87. Format                                   : PGS
  88. Muxing mode                              : zlib
  89. Codec ID                                 : S_HDMV/PGS
  90. Codec ID/Info                            : Picture based subtitle format used on BDs/HD-DVDs
  91. Duration                                 : 43 min 26 s
  92. Bit rate                                 : 67.7 kb/s
  93. Count of elements                        : 1466
  94. Stream size                              : 21.0 MiB (0%)
  95. Language                                 : French
  96. Default                                  : No
  97. Forced                                   : No

  98. Text #3
  99. ID                                       : 6
  100. Format                                   : PGS
  101. Muxing mode                              : zlib
  102. Codec ID                                 : S_HDMV/PGS
  103. Codec ID/Info                            : Picture based subtitle format used on BDs/HD-DVDs
  104. Duration                                 : 43 min 26 s
  105. Bit rate                                 : 69.2 kb/s
  106. Count of elements                        : 1548
  107. Stream size                              : 21.5 MiB (0%)
  108. Language                                 : Spanish
  109. Default                                  : No
  110. Forced                                   : No

  111. Text #4
  112. ID                                       : 7
  113. Format                                   : PGS
  114. Muxing mode                              : zlib
  115. Codec ID                                 : S_HDMV/PGS
  116. Codec ID/Info                            : Picture based subtitle format used on BDs/HD-DVDs
  117. Duration                                 : 44 min 58 s
  118. Bit rate                                 : 69.9 kb/s
  119. Count of elements                        : 1530
  120. Stream size                              : 22.5 MiB (0%)
  121. Language                                 : German
  122. Default                                  : No
  123. Forced                                   : No

  124. Menu
  125. 00:00:00.000                             : en:Chapter 01
  126. 00:06:34.644                             : en:Chapter 02
  127. 00:14:41.005                             : en:Chapter 03
  128. 00:23:25.862                             : en:Chapter 04
  129. 00:29:30.268                             : en:Chapter 05
  130. 00:45:22.052                             : en:Chapter 06
  131. 00:47:11.036                             : en:Chapter 07
復制代碼









本帖隱藏的下載地址需要VIP會員才可瀏覽,您需要升級才可瀏覽,點擊這里升級VIP
分享到:  QQ好友和群QQ好友和群
收藏收藏
VIP會員免費任意下載本站所有資源!---點擊開通
回復

使用道具 舉報

級別:初級觀眾 Lv.1

注冊時間
2018-9-22
最后登錄
2019-11-17
聽眾
8
收聽
0
主題
0
藍光幣
2 枚
貢獻
0 點
受到警告 沙發
發表于 2019-11-6 16:47:12 | 只看該作者
IMAX.Space.Station.2002.DOCU.2160p.UHD.BluRay.X265.10bit.HDR.DTS-X.5.1-JustWatch
VIP會員免費任意下載本站所有資源!---點擊開通
回復

使用道具 舉報

懶得打字嘛,點擊右側快捷回復 【右側內容,后臺自定義】
您需要登錄后才可以回帖 登錄 | 立即注冊

本版積分規則

QQ|Archiver|手機版|小黑屋| 中國高清網 |網站地圖

GMT+8, 2019-12-25 10:46 , Processed in 0.171935 second(s), 36 queries .

Powered by HDchina X3.4

Copyright 2017-2019©HDchina.All right reserved

返回頂部 聯系我們
l辽宁快乐12开奖结果