查看: 234|回復: 0
打印 上一主題 下一主題

[8bit.SDR] 再造戰士/宇宙戰士 Universal.Soldier.1992.2160p.BluRay.x264.8bit.SDR.DTS-HD.MA.5.1-SWTYBLZ 48.83GB

[復制鏈接]

 成長值: 3820

級別:資源管理組

注冊時間
2017-10-20
最后登錄
2020-1-19
聽眾
1
收聽
0
主題
90595
藍光幣
83216 枚
貢獻
14957 點
跳轉到指定樓層
樓主
發表于 2019-11-5 18:05:52 | 只看該作者 |只看大圖 回帖獎勵 |倒序瀏覽 |閱讀模式


譯  名 再造戰士 / 宇宙戰士 / 魔鬼命令
片  名 Universal Soldier
年  代 1992
產  地 美國
類  別 劇情 / 動作 / 科幻
語  言 英語
上映日期 1992-07-10
IMDb評分  6.0/10 from 78583 users
IMDb鏈接  https://www.imdb.com/title/tt0105698
豆瓣評分 6.6/10 from 2917 users
豆瓣鏈接 https://movie.douban.com/subject/1298717/
片  長 102 分鐘
導  演 羅蘭·艾默里奇 Roland Emmerich
編  劇 Christopher Leitch / Richard Rothstein
主  演 杜夫·朗格 Dolph Lundgren
       尚格·云頓 Jean-Claude Van Damme
       艾利·沃克 Ally Walker


標  簽 科幻 | 動作 | 美國 | 尚格·云頓 | 1992 | 美國電影 | 暴力 | 動作片

簡  介  

  越戰后,美國政府進行了一項絕密的科妹計劃。科妹家們將越戰中犧牲的士兵的尸體冰凍起來,植入電腦芯片,輸入戰爭程序,講他們改造成為新一代的戰爭機器人――“宇宙戰士”,這些機器人沒有情感和以前的記憶,只有冰冷的殺戮武器。士兵盧克(尚格?云頓 Jean-Claude Van Damme 飾)和班長安德魯(杜夫?朗格 Dolph Lundgren 飾)就是其中兩員,他們被派往參加一場新的戰爭。戰爭中,兩人的芯片突然出錯,令兩人都恢復了以前的記憶。
  盧克記起越戰當年正是安德魯突然性情大變將屬下和俘虜都殺光,誤闖美軍基地的女記者羅伯斯(艾麗?沃克 Ally Walker 飾)意圍獲悉了美軍這一秘密。本來羅伯斯難逃一死,關鍵時刻盧克救走了她。于是,美軍派出所有的宇宙戰士開始追殺二人。
  1. Video
  2. ID                                       : 1
  3. Format                                   : AVC
  4. Format/Info                              : Advanced Video Codec
  5. Format profile                           : [email protected]
  6. Format settings                          : CABAC / 5 Ref Frames
  7. Format settings, CABAC                   : Yes
  8. Format settings, Reference frames        : 5 frames
  9. Codec ID                                 : V_MPEG4/ISO/AVC
  10. Duration                                 : 1 h 43 min
  11. Bit rate                                 : 62.3 Mb/s
  12. Width                                    : 3 840 pixels
  13. Height                                   : 1 634 pixels
  14. Display aspect ratio                     : 2.35:1
  15. Frame rate mode                          : Constant
  16. Frame rate                               : 24.000 FPS
  17. Color space                              : YUV
  18. Chroma subsampling                       : 4:2:0
  19. Bit depth                                : 8 bits
  20. Scan type                                : Progressive
  21. Bits/(Pixel*Frame)                       : 0.413
  22. Stream size                              : 44.9 GiB (93%)
  23. Title                                    : Universal.Soldier.1992.2160p.BluRay.x264.8bit.SDR.DTS-HD.MA.5.1-SWTYBLZ
  24. Writing library                          : x264 core 157 r2935 545de2f
  25. Encoding settings                        : cabac=1 / ref=5 / deblock=1:-1:-1 / analyse=0x3:0x113 / me=umh / subme=10 / psy=1 / psy_rd=1.00:0.15 / mixed_ref=1 / me_range=48 / chroma_me=1 / trellis=2 / 8x8dct=1 / cqm=0 / deadzone=21,11 / fast_pskip=1 / chroma_qp_offset=-3 / threads=48 / lookahead_threads=4 / sliced_threads=0 / nr=0 / decimate=0 / interlaced=0 / bluray_compat=0 / constrained_intra=0 / bframes=3 / b_pyramid=2 / b_adapt=2 / b_bias=0 / direct=3 / weightb=1 / open_gop=0 / weightp=2 / keyint=250 / keyint_min=24 / scenecut=40 / intra_refresh=0 / rc_lookahead=50 / rc=crf / mbtree=1 / crf=20.0 / qcomp=0.60 / qpmin=0 / qpmax=69 / qpstep=4 / ip_ratio=1.40 / aq=1:1.00
  26. Language                                 : English
  27. Default                                  : Yes
  28. Forced                                   : No

  29. Audio #1
  30. ID                                       : 2
  31. Format                                   : DTS XLL
  32. Format/Info                              : Digital Theater Systems
  33. Commercial name                          : DTS-HD Master Audio
  34. Codec ID                                 : A_DTS
  35. Duration                                 : 1 h 43 min
  36. Bit rate mode                            : Variable
  37. Bit rate                                 : 4 287 kb/s
  38. Channel(s)                               : 6 channels
  39. Channel layout                           : C L R Ls Rs LFE
  40. Sampling rate                            : 48.0 kHz
  41. Frame rate                               : 93.750 FPS (512 SPF)
  42. Bit depth                                : 24 bits
  43. Compression mode                         : Lossless
  44. Stream size                              : 3.09 GiB (6%)
  45. Title                                    : Universal.Soldier.1992.2160p.BluRay.x264.8bit.SDR.DTS-HD.MA.5.1-SWTYBLZ
  46. Language                                 : English
  47. Default                                  : Yes
  48. Forced                                   : No

  49. Audio #2
  50. ID                                       : 3
  51. Format                                   : AC-3
  52. Format/Info                              : Audio Coding 3
  53. Commercial name                          : Dolby Digital
  54. Codec ID                                 : A_AC3
  55. Duration                                 : 1 h 43 min
  56. Bit rate mode                            : Constant
  57. Bit rate                                 : 640 kb/s
  58. Channel(s)                               : 6 channels
  59. Channel layout                           : L R C LFE Ls Rs
  60. Sampling rate                            : 48.0 kHz
  61. Frame rate                               : 31.250 FPS (1536 SPF)
  62. Bit depth                                : 16 bits
  63. Compression mode                         : Lossy
  64. Stream size                              : 473 MiB (1%)
  65. Title                                    : Universal.Soldier.1992.2160p.BluRay.x264.8bit.SDR.DTS-HD.MA.5.1-SWTYBLZ
  66. Language                                 : English
  67. Service kind                             : Complete Main
  68. Default                                  : No
  69. Forced                                   : No

  70. Text #1
  71. ID                                       : 4
  72. Format                                   : UTF-8
  73. Codec ID                                 : S_TEXT/UTF8
  74. Codec ID/Info                            : UTF-8 Plain Text
  75. Duration                                 : 1 h 36 min
  76. Bit rate                                 : 47 b/s
  77. Count of elements                        : 1050
  78. Stream size                              : 33.3 KiB (0%)
  79. Title                                    : English-SRT
  80. Language                                 : English
  81. Default                                  : Yes
  82. Forced                                   : No

  83. Text #2
  84. ID                                       : 5
  85. Format                                   : UTF-8
  86. Codec ID                                 : S_TEXT/UTF8
  87. Codec ID/Info                            : UTF-8 Plain Text
  88. Duration                                 : 1 h 37 min
  89. Bit rate                                 : 57 b/s
  90. Count of elements                        : 1246
  91. Stream size                              : 40.7 KiB (0%)
  92. Title                                    : English-SDH-SRT
  93. Language                                 : English
  94. Default                                  : No
  95. Forced                                   : No

  96. Text #3
  97. ID                                       : 6
  98. Format                                   : PGS
  99. Muxing mode                              : zlib
  100. Codec ID                                 : S_HDMV/PGS
  101. Codec ID/Info                            : Picture based subtitle format used on BDs/HD-DVDs
  102. Duration                                 : 1 h 41 min
  103. Bit rate                                 : 19.3 kb/s
  104. Count of elements                        : 1660
  105. Stream size                              : 14.0 MiB (0%)
  106. Title                                    : German-PGS
  107. Language                                 : German
  108. Default                                  : No
  109. Forced                                   : No

  110. Text #4
  111. ID                                       : 7
  112. Format                                   : PGS
  113. Muxing mode                              : zlib
  114. Codec ID                                 : S_HDMV/PGS
  115. Codec ID/Info                            : Picture based subtitle format used on BDs/HD-DVDs
  116. Duration                                 : 1 h 37 min
  117. Bit rate                                 : 27.9 kb/s
  118. Count of elements                        : 2492
  119. Stream size                              : 19.4 MiB (0%)
  120. Title                                    : English-PGS
  121. Language                                 : English
  122. Default                                  : No
  123. Forced                                   : No

  124. Text #5
  125. ID                                       : 8
  126. Format                                   : PGS
  127. Muxing mode                              : zlib
  128. Codec ID                                 : S_HDMV/PGS
  129. Codec ID/Info                            : Picture based subtitle format used on BDs/HD-DVDs
  130. Duration                                 : 1 h 41 min
  131. Bit rate                                 : 15.2 kb/s
  132. Count of elements                        : 1888
  133. Stream size                              : 11.1 MiB (0%)
  134. Title                                    : French-PGS
  135. Language                                 : French
  136. Default                                  : No
  137. Forced                                   : No

  138. Text #6
  139. ID                                       : 9
  140. Format                                   : PGS
  141. Muxing mode                              : zlib
  142. Codec ID                                 : S_HDMV/PGS
  143. Codec ID/Info                            : Picture based subtitle format used on BDs/HD-DVDs
  144. Duration                                 : 1 h 38 min
  145. Bit rate                                 : 27.1 kb/s
  146. Count of elements                        : 2184
  147. Stream size                              : 19.2 MiB (0%)
  148. Title                                    : German-PGS
  149. Language                                 : German
  150. Default                                  : No
  151. Forced                                   : No

  152. Text #7
  153. ID                                       : 10
  154. Format                                   : PGS
  155. Muxing mode                              : zlib
  156. Codec ID                                 : S_HDMV/PGS
  157. Codec ID/Info                            : Picture based subtitle format used on BDs/HD-DVDs
  158. Duration                                 : 1 h 38 min
  159. Bit rate                                 : 27.2 kb/s
  160. Count of elements                        : 2186
  161. Stream size                              : 19.2 MiB (0%)
  162. Title                                    : French-PGS
  163. Language                                 : French
  164. Default                                  : No
  165. Forced                                   : No

  166. Text #8
  167. ID                                       : 11
  168. Format                                   : PGS
  169. Muxing mode                              : zlib
  170. Codec ID                                 : S_HDMV/PGS
  171. Codec ID/Info                            : Picture based subtitle format used on BDs/HD-DVDs
  172. Duration                                 : 1 h 36 min
  173. Bit rate                                 : 20.6 kb/s
  174. Count of elements                        : 1288
  175. Stream size                              : 14.2 MiB (0%)
  176. Title                                    : German-PGS
  177. Language                                 : German
  178. Default                                  : No
  179. Forced                                   : No

  180. Menu
  181. 00:00:00.000                             : en:Chapter 01
  182. 00:10:27.458                             : en:Chapter 02
  183. 00:20:51.791                             : en:Chapter 03
  184. 00:31:24.750                             : en:Chapter 04
  185. 00:42:41.333                             : en:Chapter 05
  186. 00:53:13.625                             : en:Chapter 06
  187. 01:04:07.500                             : en:Chapter 07
  188. 01:14:22.666                             : en:Chapter 08
  189. 01:21:52.958                             : en:Chapter 09
  190. 01:31:32.875                             : en:Chapter 10
復制代碼









本帖隱藏的下載地址需要VIP會員才可瀏覽,您需要升級才可瀏覽,點擊這里升級VIP
分享到:  QQ好友和群QQ好友和群
收藏收藏
VIP會員免費任意下載本站所有資源!---點擊開通
回復

使用道具 舉報

懶得打字嘛,點擊右側快捷回復 【右側內容,后臺自定義】
您需要登錄后才可以回帖 登錄 | 立即注冊

本版積分規則

Archiver|手機版|小黑屋| 中國高清網 |網站地圖

GMT+8, 2020-1-20 06:14 , Processed in 0.198656 second(s), 36 queries .

Powered by HDchina X3.4

Copyright 2017-2019©HDchina.All right reserved

返回頂部 聯系我們
l辽宁快乐12开奖结果