查看: 101|回復: 3
打印 上一主題 下一主題

[冒險片] 愛探險的朵拉:消失的黃金城 Dora.and.the.Lost.City.of.Gold.2019.720p.BluRay.x264-DRONES 4.38GB

[復制鏈接]

 成長值: 3560

級別:資源管理組

注冊時間
2017-10-20
最后登錄
2019-12-25
聽眾
1
收聽
0
主題
88967
藍光幣
74198 枚
貢獻
13329 點
跳轉到指定樓層
樓主
發表于 2019-11-7 20:41:18 | 只看該作者 |只看大圖 回帖獎勵 |倒序瀏覽 |閱讀模式

  P3 ~* C) I; P; C" B3 b
/ I( x* W6 e  E譯  名 愛探險的朵拉:消失的黃金城 / Dora the Explorer / 朵拉與失落的黃金城 / 愛探險的Dora:勇闖黃金迷城(港) / 愛探險的朵拉
$ a7 U& ^! n* v片  名 Dora and the Lost City of Gold
& ^: d3 }; q+ p) }年  代 2019
0 L6 {4 Q# B7 t. I0 h2 u9 [' P6 ]產  地 美國) h1 b' ]9 j3 N& x0 |+ }" t; F
類  別 冒險  W' C8 m9 y" Z  u( G! @
語  言 英語
9 Y4 m% C6 ]; |. z5 ^上映日期 2019-08-09(美國)
7 ^6 ?3 u- K' }. j8 L' EIMDb評分  6.1/10 from 6012 users' v8 g" O! ]% D  q8 T2 C
IMDb鏈接  https://www.imdb.com/title/tt7547410
' U& q3 U) ^7 N豆瓣評分 5.5/10 from 218 users
# \! }( s3 N$ y7 _' a豆瓣鏈接 https://movie.douban.com/subject/27179713/
+ H& |* j0 J! B/ L2 ^+ d5 P, R4 z/ Q: k片  長 100分鐘
3 l' I" s# t" ^導  演 詹姆斯·博賓 James Bobin6 w# a  n* S; b: z# a, q
編  劇 馬修·羅賓遜 Matthew Robinson / 尼古拉斯·斯托勒 Nicholas Stoller / 克里斯·吉福德 Chris Gifford / 瓦萊麗·沃爾什 Valerie Walsh / 埃里克·韋納 Eric Weiner / 湯姆·惠勒 Tom Wheeler# j1 I! w1 R3 A! @5 s: p5 z
主  演 伊莎貝拉·莫奈 Isabela Moner
( W  o! S4 o3 v% R1 E5 D" D       邁克爾·佩納 Michael Pe?a' Z* [) `, u5 B
       本尼西奧·德爾·托羅 Benicio del Toro
  M2 q4 T0 F9 K       考莉安卡·基爾徹 Q'orianka Kilcher
; V, B" `+ E# p1 X+ w! p3 a( R       伊娃·朗格利亞 Eva Longoria
! V8 U0 N5 i  M+ M5 c9 U4 B       特穆拉·莫里森 Temuera Morrison  J! i" X, O9 M/ {2 Z2 {
       歐赫尼奧·德爾維斯 Eugenio Derbez& v# U8 d" K! Y2 w
       瑪德琳·麥登 Madeleine Madden
: f) t% u& G1 z6 c) E       艾德里安娜·巴拉扎 Adriana Barraza8 Y* c, g3 g2 M; q$ b
       伊瑟拉·維加 Isela Vega4 k$ y& j( `+ z8 w% Z5 M
       克里斯托弗·卡比 Christopher Kirby
3 \! Z* T; L. s3 ?( h. N       尼古拉斯·庫姆 Nicholas Coombe0 a: ?' h( D  b; `
       布拉登·劉易斯 Braden Lewis
( c! Q/ T1 O( Q) ]/ y1 ]       杰弗里·沃爾伯格 Jeffrey Wahlberg) x# o, _6 i' x" }/ Y8 D, s/ x2 F

  N/ q. q5 ^, X# i) i  {* l7 p9 u+ [5 w) Z( f* c  `& n/ A7 J# H
標  簽 冒險 | 美國 | 2019 | 愛探險的朵拉 | 奇幻 | 魔幻 | 派拉蒙 | 搞笑
5 i. G( ]/ x- k; j* X( K
: b: S# x9 e0 o1 F- j簡  介  
! z# y/ Z( O$ \, h6 L; N/ |# A% G( m! r  c4 ~1 d
  朵拉和父母一直生活在叢林中,直到有天她的父母決定去尋找傳說中失落的黃金城,而朵拉則被迫回到都市,與表哥迭戈一家人同住,開始了一段哭笑不得的高中生活。) \+ E+ \- n$ v, H* @
  在一次學校組織的參觀活動中,朵拉和朋友們被神秘人士綁架,他們被帶到了叢林深處。回到叢林的朵拉,展現出了比其他人更強的生存能力。她帶領著小猴布茨,表哥迭戈,神秘的叢林專家和一群毫無野外經驗的朋友們開始了一段驚險的冒險旅程。他們不光要在變幻莫測的叢林中生存下來,更要從壞人手中救出朵拉的父母,破解黃金城的秘密。& `$ }  [# l) ]  i) ?' _3 Z" Q
  1. Video  n: m+ w+ m/ w2 t6 c& V
  2. ID                                       : 1; h* q5 Z1 I$ q) d: R+ ^7 i
  3. Format                                   : AVC1 \1 t$ R6 p( ~# G* e
  4. Format/Info                              : Advanced Video Codec$ B( [' p2 @* H& Z) z
  5. Format profile                           : [email protected]! T5 E3 \; h/ U( J" C& m& C/ i+ t4 n
  6. Format settings                          : CABAC / 5 Ref Frames
    7 u2 N' U' z3 `1 @- U
  7. Format settings, CABAC                   : Yes0 n) C& M$ D0 k7 B3 I# \4 r
  8. Format settings, Reference frames        : 5 frames
    + [+ d; r0 ~# O9 k$ V' F
  9. Codec ID                                 : V_MPEG4/ISO/AVC/ x+ ]& R, O& s1 Y& y
  10. Duration                                 : 1 h 42 min# R$ o# W  V' W; e, {& l6 g  w
  11. Bit rate                                 : 5 466 kb/s
    : ^3 }9 i" g  B
  12. Width                                    : 1 280 pixels
    $ v* b! E) k5 K7 Q6 i4 G$ M% x
  13. Height                                   : 536 pixels
    ( F! g. h0 E+ Y, ]: k& y
  14. Display aspect ratio                     : 2.40:1
    0 O4 W% q# H! s$ M* U( v
  15. Frame rate mode                          : Constant
    / N' _# S1 V  \/ c  G9 U1 v% a: q7 d
  16. Frame rate                               : 23.976 (24000/1001) FPS
    8 a9 I6 ?& p1 b
  17. Color space                              : YUV
    0 d8 @4 a! s% G1 G  ~
  18. Chroma subsampling                       : 4:2:0
      f4 b8 V9 W. h7 p3 Y9 |) i8 {
  19. Bit depth                                : 8 bits: P; k$ s  x' s# @: |& |$ K: L
  20. Scan type                                : Progressive
    , Y- y7 ~+ ^) Y6 W
  21. Bits/(Pixel*Frame)                       : 0.332
    ! W: V$ s4 C/ n) C& f% g
  22. Stream size                              : 3.91 GiB (89%)$ d. Y7 X/ X. X' b. R3 V) `
  23. Writing library                          : x264 core 158 r2988 7817004
    8 m, s6 b, Y. C) o1 W$ F) D7 ~
  24. Encoding settings                        : cabac=1 / ref=5 / deblock=1:-3:-3 / analyse=0x3:0x113 / me=umh / subme=8 / psy=1 / psy_rd=1.00:0.00 / mixed_ref=1 / me_range=16 / chroma_me=1 / trellis=1 / 8x8dct=1 / cqm=0 / deadzone=21,11 / fast_pskip=1 / chroma_qp_offset=-2 / threads=17 / lookahead_threads=2 / sliced_threads=0 / nr=0 / decimate=1 / interlaced=0 / bluray_compat=0 / constrained_intra=0 / bframes=3 / b_pyramid=2 / b_adapt=1 / b_bias=0 / direct=3 / weightb=1 / open_gop=0 / weightp=2 / keyint=250 / keyint_min=23 / scenecut=40 / intra_refresh=0 / rc_lookahead=50 / rc=2pass / mbtree=1 / bitrate=5466 / ratetol=1.0 / qcomp=0.60 / qpmin=0 / qpmax=69 / qpstep=4 / cplxblur=20.0 / qblur=0.5 / ip_ratio=1.40 / aq=1:1.00
    4 `  F# ~) @+ q1 C1 h, l9 T0 P
  25. Language                                 : English* U3 e+ d; {: B: ?4 O+ w
  26. Default                                  : Yes
    / L8 K  t4 @  v$ B9 U+ F/ S
  27. Forced                                   : No/ l8 Z& Z3 ~' |0 z6 h( l6 x7 ^- c2 r

  28.   a: i9 z) x3 e  U) b, E( V% v
  29. Audio
    ; k/ O$ R" c! i! W  P
  30. ID                                       : 2* w+ s% q7 ~3 _1 J/ q) q* b
  31. Format                                   : AC-3: e! K$ g- `! w' l" J2 W
  32. Format/Info                              : Audio Coding 3
    1 @7 c" j" R; E1 |5 i) _+ U) \
  33. Commercial name                          : Dolby Digital
      Q5 S1 z0 h! ]
  34. Codec ID                                 : A_AC30 r1 `& P* g( b) [
  35. Duration                                 : 1 h 42 min: d" G, L5 Z; _6 \4 o4 e5 q, G
  36. Bit rate mode                            : Constant
    " i4 V  K" h" W
  37. Bit rate                                 : 640 kb/s
    ! H' K7 O$ O6 Q' r+ j2 g
  38. Channel(s)                               : 6 channels9 Z  k2 y$ H+ H$ q& n
  39. Channel layout                           : L R C LFE Ls Rs
    - j! ~" N+ f. `6 ?- u1 L
  40. Sampling rate                            : 48.0 kHz0 s$ l* v( g( r6 \2 k0 J
  41. Frame rate                               : 31.250 FPS (1536 SPF)
    4 R& C* q4 n* F
  42. Bit depth                                : 16 bits5 x3 m5 q0 ]9 B( w
  43. Compression mode                         : Lossy
    8 e$ |: z% m1 g: L3 t; h$ K
  44. Stream size                              : 469 MiB (10%)* k4 E  [" Y" X& c+ l
  45. Language                                 : English4 z. ^% s4 j9 z2 s' o1 c
  46. Service kind                             : Complete Main
    ' G0 d) s" b+ k1 w0 d2 x0 J1 ?4 E
  47. Default                                  : Yes
    5 h3 J% X# D4 C9 @: D
  48. Forced                                   : No
    , k. M8 B* H1 ^7 K) P

  49. 9 ^" h8 b5 r0 o' |
  50. Text) {8 R7 n; @2 e2 h
  51. ID                                       : 3
    0 W9 h8 [0 t0 Y. Z% I/ j8 h
  52. Format                                   : UTF-8' q/ X- P8 Z* n: v3 P
  53. Codec ID                                 : S_TEXT/UTF8& G+ q- F3 F9 x' r1 y/ J
  54. Codec ID/Info                            : UTF-8 Plain Text$ X( _* m9 n+ C; K( I
  55. Duration                                 : 1 h 32 min) W: e: M8 t4 v6 u, F! W
  56. Bit rate                                 : 0 b/s
    + r- Z4 S) O* j2 B0 S4 g- {
  57. Count of elements                        : 24
    $ {4 W/ g( `/ N
  58. Stream size                              : 554 Bytes (0%). B" o; q# l5 g, Q6 \; {
  59. Title                                    : English-Forced; x9 T- G+ @9 x, h
  60. Language                                 : English
    5 b4 a6 I9 f3 l
  61. Default                                  : Yes/ o* w) [+ O" |& e$ A; h
  62. Forced                                   : Yes, W, x- P& z$ v/ t

  63. ! T4 u# A  L9 V6 q& E
  64. Menu7 W& P: r; N# A4 D7 @$ S
  65. 00:00:00.000                             : en:00:00:00.000
    : `. X  j' A: _/ A/ N
  66. 00:04:52.417                             : en:00:04:52.417
    ! Q, M# h6 g! z
  67. 00:09:49.088                             : en:00:09:49.088" _. Z) U% I6 X1 \- w
  68. 00:15:35.643                             : en:00:15:35.643  l. h% b5 U4 t6 U) j
  69. 00:20:26.767                             : en:00:20:26.767: b% g9 U7 K3 j# \  j9 h8 X, v
  70. 00:25:47.838                             : en:00:25:47.838" [7 G7 Y7 U. ]  _5 a/ P( F9 Q! `
  71. 00:35:15.780                             : en:00:35:15.780& m/ X6 y5 I+ b0 p0 T
  72. 00:42:53.738                             : en:00:42:53.7383 u) m' ^! E( D" k/ E' q! U1 p
  73. 00:47:13.664                             : en:00:47:13.664
    ' `% ~0 J& M) ?; |* w
  74. 00:52:57.883                             : en:00:52:57.883) U1 k! u/ {- W( `
  75. 00:55:41.463                             : en:00:55:41.463/ o7 a1 w, y5 h$ z1 C: n2 d
  76. 01:01:02.659                             : en:01:01:02.659
      w6 _' W8 _7 S- j
  77. 01:06:11.301                             : en:01:06:11.301
    7 p( K4 ]8 S7 d" r1 Z
  78. 01:10:23.136                             : en:01:10:23.136
    / X/ G. b+ l" d! R; T: i! C
  79. 01:13:52.136                             : en:01:13:52.1360 P! R! N  Y8 |6 i$ m6 u! S
  80. 01:18:26.327                             : en:01:18:26.327
    # X! p+ C$ p- G
  81. 01:22:39.496                             : en:01:22:39.496
    : q8 I$ X9 R6 d0 t4 l$ }4 ~/ n0 ?
  82. 01:32:57.322                             : en:01:32:57.322
      p$ A8 Y+ e& N7 J  R
  83. 01:38:30.238                             : en:01:38:30.238
復制代碼
6 D" O9 I" Z) x. m' V* L
, w4 F6 f% K2 ^% J/ |  R% q( I

' W7 n+ N! c$ D# f, O* `( _' i! }
0 v4 t- G8 v2 v& f( h# B9 j; Q* h+ F: _7 r1 A0 l* }) j
4 @6 D- e8 Y, l
9 N( a' ~! y$ T1 }1 M3 t
8 F9 Z/ u4 T) z4 t5 x% a
分享到:  QQ好友和群QQ好友和群
收藏收藏
VIP會員免費任意下載本站所有資源!---點擊開通
回復

使用道具 舉報

級別:群眾演員 Lv.3

注冊時間
2019-10-27
最后登錄
2019-12-24
聽眾
1
收聽
0
主題
0
藍光幣
100 枚
貢獻
0 點
沙發
發表于 2019-11-8 00:00:12 | 只看該作者

) D+ p) \# `- e樓主太厲害了!樓主,電影應該很好看我覺得中國高清電影網真是個好地方!
VIP會員免費任意下載本站所有資源!---點擊開通
回復

使用道具 舉報

級別:一線明星 Lv.8

注冊時間
2019-4-24
最后登錄
2019-12-24
聽眾
14
收聽
0
主題
0
藍光幣
231 枚
貢獻
0 點
板凳
發表于 2019-11-8 10:49:16 | 只看該作者
樓主發貼辛苦了,謝謝樓主分享!我覺得中國高清電影網是注冊對了!
VIP會員免費任意下載本站所有資源!---點擊開通
回復

使用道具 舉報

級別:初級觀眾 Lv.1

注冊時間
2019-11-13
最后登錄
2019-11-13
聽眾
0
收聽
0
主題
0
藍光幣
3 枚
貢獻
0 點
地板
發表于 2019-11-13 12:13:53 | 只看該作者
樓主發貼辛苦了,謝謝樓主分享!我覺得中國高清電影網是注冊對了!
VIP會員免費任意下載本站所有資源!---點擊開通
回復

使用道具 舉報

懶得打字嘛,點擊右側快捷回復 【右側內容,后臺自定義】
您需要登錄后才可以回帖 登錄 | 立即注冊

本版積分規則

QQ|Archiver|手機版|小黑屋| 中國高清網 |網站地圖

GMT+8, 2019-12-25 11:38 , Processed in 0.218672 second(s), 36 queries .

Powered by HDchina X3.4

Copyright 2017-2019©HDchina.All right reserved

返回頂部 聯系我們
l辽宁快乐12开奖结果