查看: 126|回復: 3
打印 上一主題 下一主題

[恐怖片] 從Xonader星球來的霉菌 The.Mildew.from.Planet.Xonader.2015.1080p.BluRay.x264-WATCHABLE 6.53GB

[復制鏈接]

 成長值: 3560

級別:資源管理組

注冊時間
2017-10-20
最后登錄
2019-12-25
聽眾
1
收聽
0
主題
88967
藍光幣
74186 枚
貢獻
13329 點
跳轉到指定樓層
樓主
發表于 2019-11-11 23:36:43 | 只看該作者 |只看大圖 回帖獎勵 |倒序瀏覽 |閱讀模式


譯  名 從Xonader星球來的霉菌
片  名 The Mildew from Planet Xonader
年  代 2015
產  地 美國
類  別 動作 / 科幻 / 恐怖
語  言 英語
上映日期 2015-12-15(美國)
IMDb評分  5.7/10 from 447 users
IMDb鏈接  https://www.imdb.com/title/tt5246928
豆瓣評分 0/10 from 0 users
豆瓣鏈接 https://movie.douban.com/subject/26738365/
片  長 85分鐘
導  演 朱里奧·德·桑蒂斯 Giulio De Santi / Neil Meschino
編  劇 朱里奧·德·桑蒂斯 Giulio De Santi / Dave Fogerson
主  演 Wilmar Zimosa
       Edward X. Young
       Mike Keller
       Lawrence George
       Rick Haymes
       Chris Gentile
       Ardis Campbell
       David Pringle
       Nicholas Russo
       Christian Riva
       Derrick Peterson
       Dan Wilder
       Gareth Jones
       Santiago Ortaez
       Enrique Sorres


標  簽 恐怖 | 血腥 | Cult | 重口味 | 科幻 | 驚悚 | 劇情 | 美國

簡  介  

  The year is 1984. Researchers at the secretive Bentan Labs are celebrating the completion of their latest weapons project: a previously unknown type of mildew, capable of spreading and consuming any kind of vegetation... and ideal for attacking stockpiles of enemy food. When a sponsor is accidentally infected, the mildew's spores are set loose across the facility. As aggressive soldiers flood the complex and the infected staff begin to mutate, the survivors come to realize that the mildew is in fact an alien creature! To avoid an agonising death, the remaining scientists must join forces with "Toxic" - a mysterious mercenary who has infiltrated the building on a covert mission. Will anyone escape the clutches of this out of control fungus and the army of crazed mutants it has created? Body melts, alien mutations, tons of action and geysers of gore await you. The '80s are back!
  1. Video
  2. ID                                       : 1
  3. Format                                   : AVC
  4. Format/Info                              : Advanced Video Codec
  5. Format profile                           : [email protected]
  6. Format settings                          : CABAC / 4 Ref Frames
  7. Format settings, CABAC                   : Yes
  8. Format settings, Reference frames        : 4 frames
  9. Codec ID                                 : V_MPEG4/ISO/AVC
  10. Duration                                 : 1 h 20 min
  11. Bit rate                                 : 11.4 Mb/s
  12. Width                                    : 1 920 pixels
  13. Height                                   : 1 080 pixels
  14. Display aspect ratio                     : 16:9
  15. Frame rate mode                          : Constant
  16. Frame rate                               : 23.976 (24000/1001) FPS
  17. Color space                              : YUV
  18. Chroma subsampling                       : 4:2:0
  19. Bit depth                                : 8 bits
  20. Scan type                                : Progressive
  21. Bits/(Pixel*Frame)                       : 0.229
  22. Stream size                              : 6.42 GiB (98%)
  23. Writing library                          : x264 core 157 r2969 d4099dd
  24. Encoding settings                        : cabac=1 / ref=4 / deblock=1:-1:-1 / analyse=0x3:0x133 / me=umh / subme=7 / psy=1 / psy_rd=1.00:0.15 / mixed_ref=1 / me_range=16 / chroma_me=1 / trellis=2 / 8x8dct=1 / cqm=0 / deadzone=21,11 / fast_pskip=0 / chroma_qp_offset=-3 / threads=12 / lookahead_threads=2 / sliced_threads=0 / nr=0 / decimate=1 / interlaced=0 / bluray_compat=0 / constrained_intra=0 / bframes=3 / b_pyramid=2 / b_adapt=1 / b_bias=0 / direct=3 / weightb=1 / open_gop=0 / weightp=2 / keyint=250 / keyint_min=23 / scenecut=40 / intra_refresh=0 / rc_lookahead=50 / rc=2pass / mbtree=1 / bitrate=11404 / ratetol=1.0 / qcomp=0.60 / qpmin=0 / qpmax=69 / qpstep=4 / cplxblur=20.0 / qblur=0.5 / ip_ratio=1.40 / aq=1:1.00
  25. Default                                  : Yes
  26. Forced                                   : No
  27. Color range                              : Limited
  28. Matrix coefficients                      : BT.709

  29. Audio
  30. ID                                       : 2
  31. Format                                   : AC-3
  32. Format/Info                              : Audio Coding 3
  33. Commercial name                          : Dolby Digital
  34. Codec ID                                 : A_AC3
  35. Duration                                 : 1 h 20 min
  36. Bit rate mode                            : Constant
  37. Bit rate                                 : 192 kb/s
  38. Channel(s)                               : 2 channels
  39. Channel layout                           : L R
  40. Sampling rate                            : 48.0 kHz
  41. Frame rate                               : 31.250 FPS (1536 SPF)
  42. Bit depth                                : 16 bits
  43. Compression mode                         : Lossy
  44. Stream size                              : 111 MiB (2%)
  45. Language                                 : English
  46. Service kind                             : Complete Main
  47. Default                                  : Yes
  48. Forced                                   : No

  49. Text #1
  50. ID                                       : 3
  51. Format                                   : UTF-8
  52. Codec ID                                 : S_TEXT/UTF8
  53. Codec ID/Info                            : UTF-8 Plain Text
  54. Duration                                 : 42 s 244 ms
  55. Bit rate                                 : 148 b/s
  56. Count of elements                        : 15
  57. Stream size                              : 786 Bytes (0%)
  58. Title                                    : eng foreign
  59. Language                                 : English
  60. Default                                  : Yes
  61. Forced                                   : No

  62. Text #2
  63. ID                                       : 4
  64. Format                                   : UTF-8
  65. Codec ID                                 : S_TEXT/UTF8
  66. Codec ID/Info                            : UTF-8 Plain Text
  67. Duration                                 : 1 h 16 min
  68. Bit rate                                 : 54 b/s
  69. Count of elements                        : 834
  70. Stream size                              : 30.7 KiB (0%)
  71. Language                                 : English
  72. Default                                  : No
  73. Forced                                   : No

  74. Text #3
  75. ID                                       : 5
  76. Format                                   : UTF-8
  77. Codec ID                                 : S_TEXT/UTF8
  78. Codec ID/Info                            : UTF-8 Plain Text
  79. Duration                                 : 1 h 16 min
  80. Bit rate                                 : 64 b/s
  81. Count of elements                        : 875
  82. Stream size                              : 36.0 KiB (0%)
  83. Language                                 : German
  84. Default                                  : No
  85. Forced                                   : No

  86. Text #4
  87. ID                                       : 6
  88. Format                                   : UTF-8
  89. Codec ID                                 : S_TEXT/UTF8
  90. Codec ID/Info                            : UTF-8 Plain Text
  91. Duration                                 : 1 h 16 min
  92. Bit rate                                 : 55 b/s
  93. Count of elements                        : 834
  94. Stream size                              : 31.3 KiB (0%)
  95. Language                                 : Italian
  96. Default                                  : No
  97. Forced                                   : No

  98. Text #5
  99. ID                                       : 7
  100. Format                                   : UTF-8
  101. Codec ID                                 : S_TEXT/UTF8
  102. Codec ID/Info                            : UTF-8 Plain Text
  103. Duration                                 : 1 h 16 min
  104. Bit rate                                 : 56 b/s
  105. Count of elements                        : 681
  106. Stream size                              : 31.9 KiB (0%)
  107. Language                                 : Japanese
  108. Default                                  : No
  109. Forced                                   : No

  110. Menu
  111. 00:00:00.083                             : en:Chapter 01
  112. 00:01:17.660                             : en:Chapter 02
  113. 00:07:03.506                             : en:Chapter 03
  114. 00:21:45.387                             : en:Chapter 04
  115. 00:32:55.056                             : en:Chapter 05
  116. 00:51:32.172                             : en:Chapter 06
  117. 00:59:43.663                             : en:Chapter 07
  118. 01:11:48.887                             : en:Chapter 08
  119. 01:18:10.268                             : en:Chapter 09
復制代碼









分享到:  QQ好友和群QQ好友和群
收藏收藏
VIP會員免費任意下載本站所有資源!---點擊開通
回復

使用道具 舉報

級別:榮升主角 Lv.5

注冊時間
2018-2-26
最后登錄
2019-12-24
聽眾
16
收聽
0
主題
0
藍光幣
264 枚
貢獻
0 點
沙發
發表于 2019-11-12 09:22:41 | 只看該作者

這東西我收了!謝謝樓主!中國高清電影網真好!
VIP會員免費任意下載本站所有資源!---點擊開通
回復

使用道具 舉報

級別:一線明星 Lv.8

注冊時間
2019-4-24
最后登錄
2019-12-24
聽眾
14
收聽
0
主題
0
藍光幣
231 枚
貢獻
0 點
板凳
發表于 2019-11-13 13:41:21 | 只看該作者
樓主發貼辛苦了,謝謝樓主分享!我覺得中國高清電影網是注冊對了!
VIP會員免費任意下載本站所有資源!---點擊開通
回復

使用道具 舉報

級別:專業龍套 Lv.4

注冊時間
2019-12-13
最后登錄
2019-12-24
聽眾
1
收聽
0
主題
0
藍光幣
35 枚
貢獻
0 點
地板
發表于 3 天前 | 只看該作者
樓主發貼辛苦了,謝謝樓主分享!我覺得中國高清電影網是注冊對了!
VIP會員免費任意下載本站所有資源!---點擊開通
回復

使用道具 舉報

懶得打字嘛,點擊右側快捷回復 【右側內容,后臺自定義】
您需要登錄后才可以回帖 登錄 | 立即注冊

本版積分規則

QQ|Archiver|手機版|小黑屋| 中國高清網 |網站地圖

GMT+8, 2019-12-25 11:02 , Processed in 0.372005 second(s), 36 queries .

Powered by HDchina X3.4

Copyright 2017-2019©HDchina.All right reserved

返回頂部 聯系我們
l辽宁快乐12开奖结果