查看: 96|回復: 1
打印 上一主題 下一主題

[劇情片] 讓我們述說雨日 Let.It.Rain.2008.1080p.BluRay.x264-BiPOLAR 6.58GB

[復制鏈接]

 成長值: 3560

級別:資源管理組

注冊時間
2017-10-20
最后登錄
2019-12-25
聽眾
1
收聽
0
主題
88967
藍光幣
74186 枚
貢獻
13329 點
跳轉到指定樓層
樓主
發表于 2019-11-11 23:47:40 | 只看該作者 |只看大圖 回帖獎勵 |倒序瀏覽 |閱讀模式


譯  名 讓我們述說雨日 / Let it rain / 雨總要落下來
片  名 Parlez-moi de la pluie
年  代 2008
產  地 法國
類  別 劇情 / 喜劇
語  言 法語
上映日期 2008-09-17
IMDb評分  6.0/10 from 1624 users
IMDb鏈接  https://www.imdb.com/title/tt1065332
豆瓣評分 7.1/10 from 79 users
豆瓣鏈接 https://movie.douban.com/subject/2148330/
片  長 Argentina: 100 分鐘
導  演 Agnès Jaoui
編  劇 阿涅絲·夏薇依 / 讓-皮埃爾·巴克里
主  演 阿涅絲·夏薇依
       讓-皮埃爾·巴克里
       賈梅爾·杜布茲
       吉約姆·德·東克戴克


標  簽 法國 | Agnès_Jaoui | AgnèsJaoui | 法國電影 | 劇情 | 喜劇 | 電影 | 2000s

簡  介  

  法國喜劇片。阿嘉特·維拉諾瓦是新近踏入政界的女權主義者,她回到法國南部家鄉停留10天,以便幫助她妹妹弗洛朗絲整理母親過世后留下的遺物。弗洛朗絲有丈夫和孩子,卻和電視導演米歇爾搞婚外情。米歇爾在這家人的老女仆的兒子卡里姆的幫助下,說服阿嘉特接受采訪,以便拍攝一部有關“成功 的女人”的紀錄片。
  阿加莎·維昂諾娃,剛剛步入政壇的女權論者,回到她位于法國南部的兒時寓所,幫助妹妹弗羅倫斯料理一年前去世的母親的后事。
  阿加莎不喜歡這塊地方,她一有能力便離開了這里。然而,命運將她安插于此,準備下一任行政官的競選。
  這所房子里還住著弗羅倫斯和她的老公、孩子,還有米姆納——維昂諾娃一家在阿爾及利亞獨立時從阿帶到法國來的女傭。
  米姆納的兒子卡里姆,跟朋友米歇爾張羅著給阿加莎拍一部紀錄片,籌備他們的“成功女人”系列。
  這是在八月,天總是陰沉沉的,時常下雨。這樣的天氣有些反常,不過生活中出其不意的事又何止天氣……
  1. Video
  2. ID                                       : 1
  3. Format                                   : AVC
  4. Format/Info                              : Advanced Video Codec
  5. Format profile                           : [email protected]
  6. Format settings                          : CABAC / 5 Ref Frames
  7. Format settings, CABAC                   : Yes
  8. Format settings, Reference frames        : 5 frames
  9. Codec ID                                 : V_MPEG4/ISO/AVC
  10. Duration                                 : 1 h 38 min
  11. Bit rate                                 : 8 016 kb/s
  12. Width                                    : 1 920 pixels
  13. Height                                   : 824 pixels
  14. Display aspect ratio                     : 2.35:1
  15. Frame rate mode                          : Constant
  16. Frame rate                               : 24.000 FPS
  17. Color space                              : YUV
  18. Chroma subsampling                       : 4:2:0
  19. Bit depth                                : 8 bits
  20. Scan type                                : Progressive
  21. Bits/(Pixel*Frame)                       : 0.211
  22. Stream size                              : 5.52 GiB (84%)
  23. Writing library                          : x264 core 157 r2969 d4099dd
  24. Encoding settings                        : cabac=1 / ref=5 / deblock=1:-3:-3 / analyse=0x3:0x133 / me=umh / subme=9 / psy=1 / psy_rd=1.00:0.00 / mixed_ref=1 / me_range=16 / chroma_me=1 / trellis=2 / 8x8dct=1 / cqm=0 / deadzone=21,11 / fast_pskip=0 / chroma_qp_offset=-2 / threads=18 / lookahead_threads=1 / sliced_threads=0 / nr=0 / decimate=1 / interlaced=0 / bluray_compat=0 / constrained_intra=0 / bframes=3 / b_pyramid=2 / b_adapt=1 / b_bias=0 / direct=3 / weightb=1 / open_gop=0 / weightp=2 / keyint=240 / keyint_min=24 / scenecut=40 / intra_refresh=0 / rc_lookahead=50 / rc=2pass / mbtree=1 / bitrate=8016 / ratetol=1.0 / qcomp=0.60 / qpmin=0 / qpmax=69 / qpstep=4 / cplxblur=20.0 / qblur=0.5 / ip_ratio=1.40 / aq=1:1.00
  25. Language                                 : English
  26. Default                                  : Yes
  27. Forced                                   : No

  28. Audio
  29. ID                                       : 2
  30. Format                                   : DTS
  31. Format/Info                              : Digital Theater Systems
  32. Codec ID                                 : A_DTS
  33. Duration                                 : 1 h 38 min
  34. Bit rate mode                            : Constant
  35. Bit rate                                 : 1 509 kb/s
  36. Channel(s)                               : 6 channels
  37. Channel layout                           : C L R Ls Rs LFE
  38. Sampling rate                            : 48.0 kHz
  39. Frame rate                               : 93.750 FPS (512 SPF)
  40. Bit depth                                : 24 bits
  41. Compression mode                         : Lossy
  42. Stream size                              : 1.04 GiB (16%)
  43. Language                                 : French
  44. Default                                  : Yes
  45. Forced                                   : No

  46. Text #1
  47. ID                                       : 3
  48. Format                                   : UTF-8
  49. Codec ID                                 : S_TEXT/UTF8
  50. Codec ID/Info                            : UTF-8 Plain Text
  51. Duration                                 : 1 h 31 min
  52. Bit rate                                 : 63 b/s
  53. Count of elements                        : 1735
  54. Stream size                              : 42.2 KiB (0%)
  55. Title                                    : English
  56. Language                                 : English
  57. Default                                  : Yes
  58. Forced                                   : Yes

  59. Text #2
  60. ID                                       : 4
  61. Format                                   : UTF-8
  62. Codec ID                                 : S_TEXT/UTF8
  63. Codec ID/Info                            : UTF-8 Plain Text
  64. Duration                                 : 1 h 35 min
  65. Bit rate                                 : 65 b/s
  66. Count of elements                        : 1851
  67. Stream size                              : 45.8 KiB (0%)
  68. Title                                    : English SDH
  69. Language                                 : English
  70. Default                                  : No
  71. Forced                                   : No

  72. Menu
  73. 00:00:00.000                             : en:00:00:00.000
  74. 00:01:09.292                             : en:00:01:09.292
  75. 00:10:20.375                             : en:00:10:20.375
  76. 00:17:57.167                             : en:00:17:57.167
  77. 00:28:48.000                             : en:00:28:48.000
  78. 00:40:59.417                             : en:00:40:59.417
  79. 00:54:08.000                             : en:00:54:08.000
  80. 01:09:40.042                             : en:01:09:40.042
  81. 01:26:55.750                             : en:01:26:55.750
復制代碼









分享到:  QQ好友和群QQ好友和群
收藏收藏
VIP會員免費任意下載本站所有資源!---點擊開通
回復

使用道具 舉報

級別:一線明星 Lv.8

注冊時間
2019-4-24
最后登錄
2019-12-24
聽眾
14
收聽
0
主題
0
藍光幣
231 枚
貢獻
0 點
沙發
發表于 2019-11-13 12:13:40 | 只看該作者
樓主發貼辛苦了,謝謝樓主分享!我覺得中國高清電影網是注冊對了!
VIP會員免費任意下載本站所有資源!---點擊開通
回復

使用道具 舉報

懶得打字嘛,點擊右側快捷回復 【右側內容,后臺自定義】
您需要登錄后才可以回帖 登錄 | 立即注冊

本版積分規則

QQ|Archiver|手機版|小黑屋| 中國高清網 |網站地圖

GMT+8, 2019-12-25 11:04 , Processed in 0.192148 second(s), 36 queries .

Powered by HDchina X3.4

Copyright 2017-2019©HDchina.All right reserved

返回頂部 聯系我們
l辽宁快乐12开奖结果